<?xml version="1.0" standalone="no"?>
<!DOCTYPE svg PUBLIC "-//W3C//DTD SVG 1.1//EN" "http://www.w3.org/Graphics/SVG/1.1/DTD/svg11.dtd" >
<svg xmlns="http://www.w3.org/2000/svg">
<metadata></metadata>
<defs>
<font id="oswaldbold" horiz-adv-x="915" >
<font-face units-per-em="2048" ascent="1638" descent="-410" />
<missing-glyph horiz-adv-x="526" />
<glyph horiz-adv-x="0" />
<glyph unicode="&#xd;" horiz-adv-x="682" />
<glyph unicode=" "  horiz-adv-x="526" />
<glyph unicode="&#x09;" horiz-adv-x="526" />
<glyph unicode="&#xa0;" horiz-adv-x="526" />
<glyph unicode="!" horiz-adv-x="524" d="M93 0v311h315v-311h-315zM99 1654h332l-120 -1233h-116z" />
<glyph unicode="&#x22;" horiz-adv-x="730" d="M58 1044v614h285l-131 -614h-154zM439 1044v614h285l-131 -614h-154z" />
<glyph unicode="#" horiz-adv-x="1093" d="M94 552l5 209h136l26 232h-160l5 212h192l52 453h221l-53 -453h158l52 453h220l-54 -453h106l-5 -212h-137l-27 -232h161l-5 -209h-186l-66 -553h-217l64 553h-159l-66 -553h-217l65 553h-111zM452 761h161l27 232h-160z" />
<glyph unicode="$" horiz-adv-x="997" d="M45 503l314 48q2 -156 37.5 -226.5t106.5 -70.5q93 0 93 120q0 67 -24 123.5t-59 96.5t-98 94l-147 127q-53 46 -88 84t-68.5 90.5t-49.5 116.5t-16 141q0 192 110 304t302 128v189h105v-188q65 -4 118.5 -23t89.5 -46t64 -66.5t43.5 -77.5t26 -86t14 -86t5.5 -84 l-317 -41q-1 42 -2.5 69.5t-5.5 58.5t-11 50t-18.5 35.5t-29 23.5t-41.5 6q-48 -1 -73.5 -40.5t-25.5 -88.5q0 -47 11.5 -85.5t40 -74.5t46.5 -54t60 -56l141 -124q58 -52 100 -99.5t80 -108t57.5 -133t19.5 -155.5q0 -166 -102.5 -281t-273.5 -133v-201h-103v199 q-214 10 -319 136.5t-113 388.5z" />
<glyph unicode="%" horiz-adv-x="2072" d="M91 1158v70q0 230 88.5 331.5t301.5 101.5t302.5 -100.5t89.5 -328.5v-76q0 -226 -91.5 -333.5t-300.5 -107.5t-299.5 108t-90.5 335zM367 1169q0 -53 1.5 -84.5t8 -65t18.5 -50.5t33.5 -28t52.5 -11t52.5 11t33.5 28.5t18.5 51t8 65t1.5 84.5v50q0 56 -1 84t-7 60.5 t-18 46.5t-33.5 23.5t-54.5 9.5t-54.5 -9.5t-33.5 -24t-17.5 -46t-7 -60.5t-1.5 -83v-52zM688 0l504 1658h189l-504 -1658h-189zM1199 440v70q0 230 88.5 331.5t301.5 101.5t302.5 -100.5t89.5 -328.5v-76q0 -226 -91.5 -333.5t-300.5 -107.5q-208 0 -299 108t-91 335z M1475 451q0 -53 1.5 -84.5t8 -65t18.5 -50.5t33.5 -28t52.5 -11t52.5 11t33.5 28.5t18.5 51t8 65t1.5 84.5v50q0 56 -1 84t-7 60.5t-18 46.5t-33.5 23.5t-54.5 9.5t-54.5 -9.5t-33.5 -24t-17.5 -46t-7 -60.5t-1.5 -83v-52z" />
<glyph unicode="&#x26;" horiz-adv-x="1169" d="M82 363q0 142 67 280.5t166 236.5q-18 37 -55 107t-57 111t-37.5 100.5t-17.5 113.5q0 158 96.5 264.5t256.5 106.5q161 0 265.5 -95.5t104.5 -257.5q0 -48 -8.5 -93t-28 -86.5t-36.5 -73t-49.5 -71t-50.5 -60t-55.5 -60t-50.5 -53.5l192 -358q24 42 40 144.5t19 196.5 h229q0 -168 -31.5 -289t-92.5 -238q20 -25 57.5 -43.5t77.5 -22.5v-245q-34 -9 -58 -9q-22 0 -42.5 4t-43 15.5t-36.5 18.5t-38 26.5t-32 25.5t-34 30t-28 26q-55 -68 -136 -104.5t-175 -36.5q-167 0 -272.5 108.5t-105.5 280.5zM348 387q0 -83 35.5 -135t82.5 -52 q95 0 150 74q-167 339 -185 381q-83 -136 -83 -268zM422 1327q0 -44 14.5 -106t36.5 -130.5t25 -81.5q112 218 112 337q0 46 -27.5 73t-67.5 27q-41 0 -67 -33t-26 -86z" />
<glyph unicode="'" horiz-adv-x="480" d="M89 1044v614h274l-112 -614h-162z" />
<glyph unicode="(" horiz-adv-x="692" d="M128 646q0 136 3.5 235t15 213.5t32.5 194.5t57.5 158.5t88 125.5t126 75.5t169.5 28.5v-234q-109 0 -146.5 -191t-37.5 -606q0 -409 39.5 -595.5t144.5 -186.5v-234q-74 0 -136 17.5t-108.5 48.5t-84 80t-63 103t-44 127t-29.5 142t-17 158.5t-8 165.5t-2 174z" />
<glyph unicode=")" horiz-adv-x="668" d="M72 -136q105 0 144.5 188t39.5 595q0 416 -37.5 606.5t-146.5 190.5v233q67 0 123.5 -13t101 -40t81 -62t63 -85.5t47 -102.5t33.5 -122t22 -134.5t13.5 -148t6 -156.5t1.5 -166q0 -98 -2 -174t-8 -165.5t-17 -158.5t-29.5 -142.5t-44 -127t-63 -103t-84 -80.5 t-108.5 -48.5t-136 -17.5v234z" />
<glyph unicode="*" horiz-adv-x="867" d="M82 1330l75 200l200 -110l-27 237h249l-25 -239l199 112l74 -201l-220 -85l149 -206l-199 -117l-103 219l-102 -219l-197 116l146 209z" />
<glyph unicode="+" horiz-adv-x="921" d="M53 751v197h295v321h221v-321h298v-197h-298v-328h-221v328h-295z" />
<glyph unicode="," horiz-adv-x="486" d="M88 0v312h316l-1 -272q0 -306 -266 -327l-21 109q146 34 146 178h-174z" />
<glyph unicode="-" horiz-adv-x="790" d="M130 605v215h531v-215h-531z" />
<glyph unicode="." horiz-adv-x="497" d="M93 0v314h317v-314h-317z" />
<glyph unicode="/" horiz-adv-x="865" d="M88 0l505 1658h183l-505 -1658h-183z" />
<glyph unicode="0" horiz-adv-x="1094" d="M95 445v752q0 226 113.5 356t339.5 130q224 0 337.5 -130.5t113.5 -355.5v-752q0 -215 -118 -345t-333 -130q-219 0 -336 129t-117 346zM446 454q0 -180 102 -180t102 180v733q0 24 -0.5 38.5t-3 40.5t-9.5 42.5t-17.5 34t-29 26t-42.5 8.5q-19 0 -34.5 -4.5t-26 -16 t-18 -21t-12 -28.5t-7 -29t-3.5 -33t-1 -29.5v-28.5v-733z" />
<glyph unicode="1" horiz-adv-x="1086" d="M195 1221v255q78 37 174 90.5t132 91.5h269v-1658h-344v1317z" />
<glyph unicode="2" horiz-adv-x="1085" d="M110 1083v86q0 113 26 204.5t80 162.5t144.5 109.5t211.5 38.5q221 0 336 -115.5t115 -324.5q0 -31 -4 -62.5t-8.5 -57t-16 -57.5t-18.5 -51.5t-25 -53t-25.5 -48t-30.5 -50t-30 -46t-33.5 -49.5t-32.5 -47l-303 -453h481v-269h-866v242l393 611q10 16 39 59t42.5 65 t36 62.5t33.5 69.5t20 66.5t9 72.5q0 78 -34 116q-27 30 -70 29q-11 0 -24 -2q-59 -8 -86.5 -63t-27.5 -165v-80h-332z" />
<glyph unicode="3" horiz-adv-x="1078" d="M96 489v59h343v-58q1 -127 26 -179.5t94 -52.5q67 0 89 51t22 170q0 130 -36.5 190t-137.5 63h-60v240h54q104 1 142 56.5t38 183.5q0 101 -26.5 149t-92.5 48q-65 0 -88 -51.5t-24 -152.5v-85h-343v100q0 222 120.5 343t333.5 121q218 0 338 -115.5t120 -334.5 q0 -141 -57.5 -240t-146.5 -123q204 -74 204 -383q0 -118 -24.5 -210t-77 -162.5t-141.5 -108t-210 -37.5q-127 0 -217.5 36.5t-142.5 107.5t-75.5 162.5t-23.5 212.5z" />
<glyph unicode="4" horiz-adv-x="1094" d="M68 381v257l429 1020h382v-1028h159v-249h-159v-381h-307v381h-504zM326 630h246v692z" />
<glyph unicode="5" horiz-adv-x="1084" d="M116 487h331q0 -148 25 -207q23 -55 91 -55h9q20 1 36 6.5t27.5 20t19.5 27.5t13 40.5t8 48t4 60t1.5 66t0.5 76.5q0 67 -4.5 113t-17 88t-39.5 63t-67 21q-106 0 -130 -151h-297l29 954h777v-287h-500l-20 -340q23 28 79.5 49.5t123.5 27.5q23 2 44 2q157 0 245 -122 q100 -140 100 -407q0 -95 -7 -168.5t-24.5 -146t-50 -124t-82 -92t-122.5 -60.5t-169 -20q-107 0 -184.5 25t-125 67.5t-76 110t-38.5 141.5t-10 173z" />
<glyph unicode="6" horiz-adv-x="1092" d="M103 522v592q0 103 12 184.5t43 155t82 122t131.5 77t188.5 28.5q117 0 199 -27.5t131 -83t71.5 -132.5t23.5 -183v-29h-323q0 111 -17.5 153.5t-82.5 42.5q-69 0 -90 -67t-21 -264v-147q25 43 79.5 67.5t124.5 26.5h10q90 0 157 -34q71 -36 112 -102.5t60.5 -151 t19.5 -188.5q0 -136 -22.5 -238.5t-73 -183t-140.5 -122.5t-217 -42q-119 0 -208 40.5t-143 115t-80.5 172t-26.5 218.5zM451 441q0 -212 115 -212q34 0 55 17t32 56t14.5 85.5t3.5 120.5q0 42 -0.5 65t-2.5 56t-6 51.5t-12 39.5t-19.5 31.5t-28.5 18t-39 7.5 q-37 0 -67.5 -21.5t-44.5 -48.5v-266z" />
<glyph unicode="7" horiz-adv-x="1026" d="M132 1399v259h783v-233l-359 -1425h-334l358 1399h-448z" />
<glyph unicode="8" horiz-adv-x="1085" d="M89 476v18q2 130 48.5 231.5t140.5 148.5q-70 51 -115 141t-48 218v18q0 199 106 311q111 118 321 118t320 -118q105 -113 104 -311v-18q-3 -129 -47 -219t-114 -140q93 -48 141 -149.5t50 -230.5v-27q0 -103 -20 -185q-24 -92 -76.5 -162.5t-143 -108t-214.5 -37.5 q-123 0 -212.5 37.5t-142 108t-76.5 163.5q-22 86 -22 193zM425 469q0 -46 3 -79.5t13.5 -75.5t36 -65t64.5 -23q27 0 47.5 11t32.5 32t20 43t11.5 53.5t4.5 53t1 50.5q0 36 -1 62.5t-4.5 58t-11.5 53.5t-20.5 41.5t-32.5 29t-47 9.5q-31 0 -53.5 -15t-34.5 -37.5t-19 -59 t-8.5 -67.5t-1.5 -75zM438 1245q0 -248 104 -248q102 0 102 247q0 84 -26 132t-76 48q-52 0 -78 -47.5t-26 -131.5z" />
<glyph unicode="9" horiz-adv-x="1092" d="M88 1113q0 134 24.5 235.5t77 177.5t140.5 115.5t210 39.5q235 0 346.5 -140t111.5 -388v-610q0 -103 -12 -184.5t-43.5 -155t-82.5 -122t-132 -77t-189 -28.5q-117 0 -199 27.5t-130.5 83.5t-70.5 133t-23 184v27h323q0 -109 19 -152.5t84 -43.5q68 0 86.5 65t18.5 266 v147q-25 -44 -78 -68t-123 -26h-9q-90 1 -158 37q-71 38 -112 108.5t-60 157t-19 191.5zM437 1149q0 -51 0.5 -75.5t3.5 -63t9.5 -56.5t18 -38t30.5 -28t45 -8q67 0 103 70v266q0 47 -3.5 80.5t-14.5 65.5t-33 49t-56 17q-64 0 -83.5 -64t-19.5 -215z" />
<glyph unicode=":" horiz-adv-x="564" d="M135 119v309h313v-309h-313zM135 842v310h313v-310h-313z" />
<glyph unicode=";" horiz-adv-x="579" d="M135 866v312h313v-312h-313zM136 38v312h316v-272q0 -154 -66.5 -234.5t-200.5 -81.5l-21 108q147 23 147 168h-175z" />
<glyph unicode="&#x3c;" horiz-adv-x="815" d="M64 640v261l634 444v-293l-394 -280l394 -283v-291z" />
<glyph unicode="=" horiz-adv-x="907" d="M128 508v204h652v-204h-652zM128 896v204h652v-204h-652z" />
<glyph unicode="&#x3e;" horiz-adv-x="815" d="M112 198v291l394 283l-394 280v293l634 -444v-261z" />
<glyph unicode="?" horiz-adv-x="993" d="M69 1316q-1 66 15 124q20 72 66 127.5t127.5 86.5t191.5 31q219 0 336 -110.5t117 -309.5q0 -179 -101.5 -352t-251.5 -278v-200h-304v265q150 124 243 274q84 135 84 274q0 15 -1 30q-7 119 -115 119q-45 1 -72 -31q-24 -27 -24 -71q0 -6 1 -13q0 -40 21 -106l-302 -68 q-30 120 -30 174q-1 18 -1 34zM256 0v317h326v-317h-326z" />
<glyph unicode="@" horiz-adv-x="1951" d="M109 550q0 77 9 159q20 214 97 389.5t203 300t304 192.5t393 68q169 0 304.5 -43.5t227.5 -121.5t150.5 -187t78.5 -239q12 -77 13 -161q0 -57 -6 -118q-6 -80 -27.5 -159t-64.5 -157.5t-101 -137.5t-143.5 -96t-186.5 -37q-92 0 -166.5 39t-98.5 114q-24 -55 -76 -93 t-118 -44q-17 -2 -33 -2q-90 0 -162 48q-84 56 -122 154q-35 87 -36 194q0 14 1 27q3 75 20 155.5t54 164t89 148.5t130.5 106.5t172.5 41.5q16 0 30.5 -3t27 -10.5t22 -14t19 -18.5t15.5 -19t13 -21.5t9.5 -20t8.5 -19t6 -14.5l20 127h266l-91 -674q-8 -62 -7.5 -101.5 t7.5 -57.5q7 -16 21 -20q13 -3 26 -3q45 0 92 38q60 49 102.5 146.5t52.5 214.5q6 58 6 111q1 87 -15 162q-24 121 -90 211.5t-183.5 139t-281.5 48.5q-138 0 -252.5 -38.5t-196.5 -106t-141.5 -162t-93 -203t-46.5 -233.5q-10 -83 -10 -157q0 -87 14 -163 q25 -140 99.5 -242t209.5 -155.5t326 -53.5q81 0 199 19t206 48l38 -206q-281 -66 -474 -66q-304 0 -507.5 117.5t-289.5 335.5q-63 158 -63 359zM837 632q0 -84 32 -139q31 -52 95 -52h9q88 17 107 63l62 479q-1 14 -20.5 21t-36.5 7q-77 0 -135.5 -58.5t-85 -142 t-27.5 -173.5v-5z" />
<glyph unicode="A" horiz-adv-x="1127" d="M43 0l314 1658h414l312 -1658h-338l-57 352h-242l-56 -352h-347zM478 571h177l-89 642z" />
<glyph unicode="B" horiz-adv-x="1204" d="M122 0v1658h432q93 0 165.5 -9.5t144 -37.5t118 -74.5t74.5 -126.5q25 -71 25 -165v-7v-14q-4 -290 -243 -333q143 -19 218 -120t77 -279v-11q-1 -243 -127 -361q-130 -120 -374 -120h-510zM488 256h77q119 0 167 58t48 183q0 140 -49 198t-171 58h-72v-497zM488 995h70 q118 0 160.5 53t42.5 168q0 196 -215 196h-58v-417z" />
<glyph unicode="C" horiz-adv-x="1151" d="M99 532v591q0 135 25 234.5t81.5 174t154 112t237.5 37.5q134 0 228.5 -34t148 -100t77 -150t23.5 -195v-146h-358v167q0 39 -1 59t-7 51.5t-17.5 47.5t-35.5 28.5t-58 12.5t-58 -12.5t-36.5 -30t-20 -48t-9 -55.5t-1.5 -62v-773q0 -100 26 -152.5t99 -52.5 q33 0 56.5 12.5t35.5 29.5t18.5 48t7.5 54t1 61v174h358v-143q0 -89 -14 -161t-47.5 -135.5t-87 -106.5t-136.5 -67.5t-192 -24.5q-139 0 -237 38.5t-154.5 113.5t-81.5 173t-25 230z" />
<glyph unicode="D" horiz-adv-x="1196" d="M122 0v1658h417q163 0 270.5 -29t171.5 -95t90 -161.5t26 -239.5v-598q0 -145 -26.5 -242.5t-90 -165t-170 -97.5t-266.5 -30h-422zM488 254h56q42 0 71.5 5.5t49 19.5t31 29.5t17 45t7 56t1.5 71.5v713q0 63 -5 97t-23 62t-53.5 38.5t-96.5 10.5h-55v-1148z" />
<glyph unicode="E" d="M122 0v1658h745v-250h-379v-410h289v-255h-289v-495h383v-248h-749z" />
<glyph unicode="F" horiz-adv-x="887" d="M122 0v1658h718v-249h-352v-417h303v-256h-303v-736h-366z" />
<glyph unicode="G" horiz-adv-x="1190" d="M99 551v551q0 110 15.5 197t51 160t92.5 121t142 74.5t197 26.5q108 0 191 -23t138.5 -64t90.5 -102.5t50 -134t15 -162.5v-105h-358v133q0 38 -1.5 62t-8 53t-19 45t-36 27.5t-57.5 11.5q-35 0 -59.5 -13t-37.5 -31.5t-20.5 -49.5t-9 -56.5t-1.5 -62.5v-759 q0 -99 29.5 -156.5t107.5 -57.5q144 0 144 221v186h-150v219h481v-862h-243l-21 139q-73 -163 -267 -163q-126 0 -215.5 40.5t-141.5 118.5t-75.5 180t-23.5 236z" />
<glyph unicode="H" horiz-adv-x="1247" d="M129 0v1658h367v-670h255v670h367v-1658h-367v726h-255v-726h-367z" />
<glyph unicode="I" horiz-adv-x="615" d="M125 0v1658h366v-1658h-366z" />
<glyph unicode="J" horiz-adv-x="715" d="M26 -40v255h13h6q101 0 139 31q42 34 42 137v1275h366v-1289q-2 -107 -20.5 -179.5t-62 -126t-118.5 -78.5t-187 -25h-178z" />
<glyph unicode="K" horiz-adv-x="1160" d="M122 0v1658h366v-674l280 674h357l-307 -749l322 -909h-374l-242 741l-36 -57v-684h-366z" />
<glyph unicode="L" horiz-adv-x="906" d="M122 0v1658h366v-1410h380v-248h-746z" />
<glyph unicode="M" horiz-adv-x="1441" d="M117 0l27 1658h392l184 -970l198 970h379l27 -1658h-262l-27 1100l-195 -1100h-229l-204 1108l-25 -1108h-265z" />
<glyph unicode="N" horiz-adv-x="1146" d="M122 0v1658h258l341 -796v796h304v-1658h-248l-342 858v-858h-313z" />
<glyph unicode="O" horiz-adv-x="1198" d="M99 524v612q0 134 25.5 231.5t83 169.5t155 108t235.5 36q269 0 385.5 -137.5t116.5 -407.5v-612q0 -270 -116.5 -408.5t-385.5 -138.5q-138 0 -235.5 36.5t-155 109t-83 170.5t-25.5 231zM475 433q0 -35 1.5 -58.5t8.5 -52t20 -45.5t36.5 -29t56.5 -12t57 11.5t37 29 t20.5 45.5t9.5 52.5t2 58.5v795q0 33 -2 57.5t-9.5 52t-20.5 44.5t-37 28.5t-57 11.5t-56.5 -11.5t-36.5 -28t-20 -45t-8.5 -51.5t-1.5 -58v-795z" />
<glyph unicode="P" horiz-adv-x="1162" d="M122 0v1658h553q220 0 329 -123t109 -358q0 -93 -16.5 -167t-48.5 -125t-74 -86.5t-98 -55.5t-114.5 -28.5t-129.5 -8.5h-144v-706h-366zM488 961h117q99 0 131.5 50.5t32.5 171.5q0 43 -2.5 72t-12 59t-27 47.5t-48.5 28.5t-75 11h-116v-440z" />
<glyph unicode="Q" horiz-adv-x="1198" d="M99 524v612q0 134 25.5 231.5t83 169.5t155 108t235.5 36q269 0 385.5 -137.5t116.5 -407.5v-612q0 -373 -219 -488q98 -107 166 -143l-76 -219q-74 31 -176 120t-163 183h-34q-138 0 -235.5 36.5t-155 109t-83 170.5t-25.5 231zM475 433q0 -35 1.5 -58.5t8.5 -52 t20 -45.5t36.5 -29t56.5 -12t57 11.5t37 29t20.5 45.5t9.5 52.5t2 58.5v795q0 33 -2 57.5t-9.5 52t-20.5 44.5t-37 28.5t-57 11.5t-56.5 -11.5t-36.5 -28t-20 -45t-8.5 -51.5t-1.5 -58v-795z" />
<glyph unicode="R" horiz-adv-x="1224" d="M122 0v1658h452q105 0 186 -12t152 -42t117 -79t72 -126t26 -180q0 -163 -44 -262t-159 -154l228 -803h-379l-182 742h-103v-742h-366zM488 953h94q112 0 158 58t46 175q0 115 -41.5 170.5t-143.5 55.5h-113v-459z" />
<glyph unicode="S" horiz-adv-x="1052" d="M86 503l314 48q2 -156 37.5 -226.5t106.5 -70.5q93 0 93 120q0 67 -24 123.5t-59 96.5t-98 94l-147 127q-53 46 -88 84t-68.5 90.5t-49.5 116.5t-16 141q0 207 124 320t340 114q74 0 134.5 -16t102 -42t73 -65.5t50 -79t31 -89t17 -90.5t7.5 -88l-318 -41 q-1 42 -2.5 69.5t-5.5 58.5t-11 50t-18.5 35.5t-29 23.5t-41.5 6q-48 -1 -73.5 -40.5t-25.5 -88.5q0 -47 11.5 -85.5t40 -74.5t46.5 -54t60 -56l141 -124q58 -52 100 -99.5t80 -108t57.5 -133t19.5 -155.5q0 -180 -120 -298.5t-315 -118.5q-236 0 -351.5 125.5t-124.5 400.5 z" />
<glyph unicode="T" horiz-adv-x="914" d="M20 1387v271h874v-271h-252v-1387h-367v1387h-255z" />
<glyph unicode="U" horiz-adv-x="1202" d="M111 522v1136h362v-1190q0 -39 2 -66.5t9.5 -59.5t20.5 -52.5t37.5 -34t58.5 -13.5t58 13.5t37 34t20.5 52.5t9.5 60t2 66v1190h363v-1136q0 -138 -23.5 -235t-78.5 -169t-151 -106.5t-237 -34.5q-113 0 -197.5 23.5t-140 66.5t-90 111.5t-48.5 151t-14 192.5z" />
<glyph unicode="V" horiz-adv-x="1078" d="M46 1658h313l178 -1118l165 1118h333l-304 -1658h-385z" />
<glyph unicode="W" horiz-adv-x="1432" d="M57 1658h311l98 -963l127 963h242l133 -958l100 958h307l-201 -1658h-318l-141 1000l-136 -1000h-322z" />
<glyph unicode="X" horiz-adv-x="1055" d="M14 0l323 894l-309 764h347l181 -448l146 448h308l-291 -859l322 -799h-343l-201 494l-179 -494h-304z" />
<glyph unicode="Y" horiz-adv-x="1011" d="M16 1658h345l158 -525l143 525h333l-312 -980v-678h-351v678z" />
<glyph unicode="Z" horiz-adv-x="885" d="M62 0v222l402 1187h-386v249h749v-203l-413 -1207h416v-248h-768z" />
<glyph unicode="[" horiz-adv-x="685" d="M106 -381l1 2039h517v-130h-255l-1 -1779h254v-130h-516z" />
<glyph unicode="\" horiz-adv-x="865" d="M88 1658h183l505 -1658h-183z" />
<glyph unicode="]" horiz-adv-x="666" d="M42 1528v130h516l2 -2039h-517v129h255l-2 1780h-254z" />
<glyph unicode="^" horiz-adv-x="978" d="M62 971l293 687h267l294 -687h-284l-144 402l-143 -402h-283z" />
<glyph unicode="_" horiz-adv-x="753" d="M0 -117h753v-225h-753v225z" />
<glyph unicode="`" horiz-adv-x="633" d="M84 1658h343l124 -412h-208z" />
<glyph unicode="a" horiz-adv-x="976" d="M73 268q0 58 14.5 108.5t35 87.5t57.5 72t67 56.5t79.5 46t79.5 36.5t81.5 31.5t72.5 28.5v117q0 50 -15 77t-55 27q-68 0 -72 -94l-8 -87l-312 12q0 3 1 20t1 19q15 194 120.5 286t301.5 92q175 0 266.5 -97t91.5 -259v-551q0 -114 21 -297h-297q-26 144 -28 168 q-24 -81 -82 -135t-146 -54q-126 2 -200.5 89.5t-74.5 199.5zM377 335q0 -58 26 -92t66 -34q24 0 49.5 16.5t41.5 39.5v324q-80 -40 -131.5 -112.5t-51.5 -141.5z" />
<glyph unicode="b" horiz-adv-x="1036" d="M105 0v1658h334v-561q120 107 247 107h11q128 -4 190.5 -102t62.5 -248v-505q0 -169 -67.5 -269.5t-192.5 -100.5t-251 110v-89h-334zM439 226q49 -29 93 -29h2q42 1 62 37q19 36 19 91v6v548q0 55 -21 90q-19 32 -58 32h-7q-41 -3 -90 -39v-736z" />
<glyph unicode="c" horiz-adv-x="959" d="M81 379v428q0 188 107 292.5t302 104.5q192 0 295.5 -89.5t103.5 -266.5v-125h-322v134q0 68 -18.5 93t-57.5 25t-57 -31t-18 -107v-491q0 -77 18.5 -106t56.5 -29q39 0 57.5 26.5t18.5 88.5v156h322v-143q0 -176 -104.5 -268t-294.5 -92q-195 0 -302 105.5t-107 294.5z " />
<glyph unicode="d" horiz-adv-x="1031" d="M87 348v481q0 169 70.5 272t204.5 103q123 0 231 -93v547h334v-1658h-334v90q-113 -110 -231 -111q-134 0 -204.5 93t-70.5 276zM422 326q0 -58 20 -95t64 -37q35 0 87 29v745q-44 26 -85 26q-44 0 -65 -35.5t-21 -92.5v-540z" />
<glyph unicode="e" horiz-adv-x="962" d="M81 380v424q0 191 107.5 295.5t302.5 104.5q197 0 295.5 -101.5t98.5 -298.5v-233h-473v-208q0 -72 18 -108.5t61 -36.5q84 0 84 115v79h310v-69q0 -177 -103.5 -270.5t-290.5 -93.5q-196 0 -303 105t-107 296zM412 727h163v118q0 66 -22 93.5t-63 27.5q-39 0 -58.5 -32 t-19.5 -109v-98z" />
<glyph unicode="f" horiz-adv-x="656" d="M35 957v227h113v83q0 58 4 99.5t16 84.5t34.5 71t58 50.5t88.5 33.5t124 11q72 0 159 -10v-248q-57 9 -70 9q-80 0 -80 -91v-93h150v-227h-150v-957h-334v957h-113z" />
<glyph unicode="g" horiz-adv-x="1022" d="M51 -130q0 118 169 235q-74 27 -108 59t-40 74q-3 16 -3 32q0 48 28 87q37 52 119 117q-129 94 -129 294q0 221 107.5 328.5t304.5 107.5q189 0 270 -103q75 88 160 132l44 22l77 -163q-30 -9 -95 -38t-103 -52q59 -90 59 -232q0 -191 -96.5 -297.5t-292.5 -106.5 q-47 0 -101.5 10.5t-87.5 24.5q-36 -47 -36 -74q0 -4 1 -8q4 -30 109 -45q28 -5 127 -17.5t130 -16.5q171 -23 240.5 -90.5t69.5 -194.5q0 -72 -21 -126.5t-69 -97t-132 -64.5t-202 -22q-48 0 -87.5 1.5t-93 6.5t-95.5 14t-85.5 26t-72 40.5t-47 58.5t-18.5 78zM362 -60 q0 -45 41.5 -65.5t145.5 -20.5q82 0 120 17t42 57q1 10 1 20q0 38 -22 56q-28 24 -102 31l-179 22q-47 -69 -47 -117zM417 784q0 -59 3 -94.5t11.5 -66t27 -44t47.5 -13.5q57 0 74 47.5t17 170.5q0 129 -15.5 174.5t-76.5 45.5q-21 0 -36 -5.5t-25 -20.5t-15.5 -29.5 t-8 -44.5t-3 -53t-0.5 -67z" />
<glyph unicode="h" horiz-adv-x="1043" d="M106 0v1658h334v-580q126 126 289 126q105 0 161 -77t56 -198v-929h-334v879q0 45 -14 66.5t-52 20.5q-44 0 -106 -43v-923h-334z" />
<glyph unicode="i" horiz-adv-x="545" d="M105 1383v235h336v-235h-336zM107 0v1184h334v-1184h-334z" />
<glyph unicode="j" horiz-adv-x="565" d="M-19 -100q48 -8 59 -8q91 0 91 100v1192h334v-1232q0 -144 -79.5 -231t-227.5 -87q-86 0 -177 27v239zM129 1383v235h336v-235h-336z" />
<glyph unicode="k" horiz-adv-x="1104" d="M105 1v1658h331v-919l287 444h375l-312 -485l309 -699h-365l-206 562l-88 -111v-450h-331z" />
<glyph unicode="l" horiz-adv-x="561" d="M118 0v1658h334v-1658h-334z" />
<glyph unicode="m" horiz-adv-x="1542" d="M104 0v1184h327v-96q119 118 282 118q70 0 122.5 -36t79.5 -104q125 140 303 140q104 0 166 -76t62 -210v-920h-328v886q0 49 -17 71t-53 20q-54 -2 -109 -43v-14v-920h-325v886q0 48 -17.5 70.5t-53.5 20.5q-50 -2 -112 -45v-932h-327z" />
<glyph unicode="n" horiz-adv-x="1039" d="M104 0v1184h334v-118q141 138 287 138q105 0 161 -77t56 -198v-929h-334v879q0 45 -14 66.5t-52 20.5q-42 0 -104 -41v-925h-334z" />
<glyph unicode="o" horiz-adv-x="989" d="M81 368v447q0 190 109 289.5t303 99.5t304.5 -100t110.5 -289v-447q0 -189 -110.5 -289t-304.5 -100t-303 100t-109 289zM410 345q0 -69 18.5 -105.5t64.5 -36.5q48 0 66.5 35.5t18.5 106.5v493q0 72 -18.5 107.5t-66.5 35.5q-46 0 -64.5 -36.5t-18.5 -106.5v-493z" />
<glyph unicode="p" horiz-adv-x="1034" d="M104 -390v1574h334v-87q122 107 246 107h11q128 -4 190.5 -102t62.5 -248v-505q0 -169 -67.5 -269.5t-192.5 -100.5q-124 0 -250 110v-479h-334zM438 226q48 -29 90 -29h2q42 1 62 37q20 38 21 97v548q0 54 -22 90q-20 32 -57 32h-9q-38 -3 -87 -39v-736z" />
<glyph unicode="q" horiz-adv-x="1033" d="M86 348v481q0 169 70.5 272t204.5 103q124 0 236 -99v79h334v-1574h-334v486q-116 -116 -236 -117q-134 0 -204.5 93t-70.5 276zM421 326q0 -58 21 -95t65 -37q37 0 90 33v739q-52 28 -88 28q-44 0 -66 -35.5t-22 -92.5v-540z" />
<glyph unicode="r" horiz-adv-x="760" d="M108 0v1184h334v-197q109 212 237 212q18 0 47 -8v-296q-28 7 -55 7q-137 -7 -229 -143v-759h-334z" />
<glyph unicode="s" horiz-adv-x="865" d="M39 277l231 101q34 -84 80 -130q41 -42 86 -42h10q31 2 52 24.5t20 55.5q-1 17 -12.5 36.5t-43.5 50t-44.5 41.5t-57.5 49l-92 79q-201 170 -201 332q-1 96 51 173q50 76 133 116.5t180 40.5q145 0 242.5 -79t137.5 -225l-216 -101q-20 67 -58 118t-86 54h-3 q-36 1 -56 -19q-22 -20 -23 -50q-4 -48 142 -170q12 -11 18 -16l89 -80q52 -45 78 -70.5t63 -70.5t53.5 -92t16.5 -101q0 -101 -54 -176t-138.5 -111t-185.5 -36q-151 0 -251 71.5t-161 226.5z" />
<glyph unicode="t" horiz-adv-x="724" d="M26 966v218h113v359h337v-359h170v-218h-170v-612q0 -93 107 -96q13 -1 29.5 0t27 2.5t21 3.5t11.5 2v-263q-107 -18 -198 -18q-17 0 -34 1q-55 2 -99.5 15.5t-75.5 34.5t-54 53t-36.5 66t-21.5 79t-11 86.5t-3 93.5v552h-113z" />
<glyph unicode="u" horiz-adv-x="1030" d="M94 255v929h334v-889q0 -44 15.5 -66.5t52.5 -21.5q40 1 95 36v941h334v-1184h-334v109q-137 -129 -280 -129q-105 0 -161 77t-56 198z" />
<glyph unicode="v" horiz-adv-x="863" d="M21 1184h320l97 -758l90 758h319l-241 -1184h-349z" />
<glyph unicode="w" horiz-adv-x="1225" d="M43 1184h279l85 -672l94 672h241l81 -687l99 687h259l-179 -1184h-285l-102 663l-113 -663h-284z" />
<glyph unicode="x" horiz-adv-x="904" d="M20 0l252 649l-239 535h336l127 -285l111 285h259l-236 -585l268 -599h-337l-145 324l-117 -324h-279z" />
<glyph unicode="y" d="M5 1184h315l147 -683l112 683h315l-279 -1248q-62 -279 -423 -279h-10h-46v231q110 0 152 22q38 20 38 79q0 7 -1 14q-6 51 -44 186q-11 47 -138 497.5t-138 497.5z" />
<glyph unicode="z" horiz-adv-x="801" d="M71 0v216l326 724h-301v244h647v-203l-325 -736h330v-245h-677z" />
<glyph unicode="{" horiz-adv-x="767" d="M97 528v239q26 0 42.5 1.5t32 8.5t24 14.5t15.5 27.5t10.5 39t5.5 57.5t2.5 74t0.5 97.5v169q0 67 2.5 112.5t10.5 92.5t22.5 77t39 58.5t58.5 45t83.5 29.5t112 18t144.5 5v-224q-57 0 -86.5 -6.5t-48 -33.5t-23.5 -69t-5 -123v-190q0 -185 -38.5 -281t-138.5 -119 q100 -24 138.5 -120t38.5 -281v-190q0 -81 5 -123t23.5 -69t48 -33.5t86.5 -6.5v-224q-82 0 -144.5 5t-112 18t-83.5 29.5t-58.5 45t-39 58.5t-22.5 77t-10.5 92.5t-2.5 112.5v169q0 62 -0.5 97.5t-2.5 74t-5.5 57.5t-10.5 39t-15.5 27.5t-24 14.5t-32 8.5t-42.5 1.5z" />
<glyph unicode="|" horiz-adv-x="538" d="M131 -366l1 2024h275v-2024h-276z" />
<glyph unicode="}" horiz-adv-x="780" d="M77 -175q58 0 87 6.5t48 33.5t23.5 68.5t4.5 123.5v190q0 185 38.5 281t139.5 120q-101 23 -139.5 119t-38.5 281v190q0 82 -4.5 123.5t-23.5 68.5t-48 33.5t-87 6.5v224q82 0 145 -5t112 -18t83.5 -29.5t59 -45t39 -58.5t22.5 -77t10.5 -92.5t2.5 -112.5v-169 q0 -62 0.5 -97.5t2.5 -74t5 -57.5t10.5 -39t16 -27.5t24 -14.5t32 -8.5t41.5 -1.5v-239q-25 0 -41.5 -1.5t-32 -8.5t-24 -14.5t-16 -27.5t-10.5 -39t-5 -57.5t-2.5 -74t-0.5 -97.5v-169q0 -67 -2.5 -112.5t-10.5 -92.5t-22.5 -77t-39 -58.5t-59 -45t-83.5 -29.5t-112 -18 t-145 -5v224z" />
<glyph unicode="~" horiz-adv-x="989" d="M82 844q43 73 112 132.5t130 59.5q50 0 119 -30t130 -59.5t91 -29.5q52 0 139 97l116 -120q-36 -81 -108 -146.5t-139 -65.5q-39 0 -92 19t-95 41.5t-86.5 41.5t-70.5 19t-67.5 -27t-73.5 -71z" />
<glyph unicode="&#xa1;" horiz-adv-x="485" d="M75 -318l120 1233h116l96 -1233h-332zM97 1025v311h316v-311h-316z" />
<glyph unicode="&#xa2;" horiz-adv-x="932" d="M76 379v428q0 175 93.5 278t263.5 117v243h85v-242q178 -7 272 -96t94 -259v-125h-322v126q0 68 -18.5 93.5t-57.5 25.5t-56.5 -31t-17.5 -108v-476q0 -76 18.5 -105.5t56.5 -29.5q39 0 57 26.5t18 88.5v149h322v-143q0 -169 -95 -260t-271 -99v-244h-85v246 q-170 14 -263.5 118t-93.5 279z" />
<glyph unicode="&#xa3;" horiz-adv-x="1001" d="M41 0v188l122 57v411h-122v261h122v184q0 76 3 133.5t13 121t27.5 109t47.5 88.5t72 69.5t102 42.5t136 16q90 0 157 -22.5t108 -60.5t66.5 -96.5t35 -122.5t9.5 -146v-50h-292q0 55 -2 86t-9.5 66.5t-25 51t-45.5 15.5q-19 0 -32.5 -7.5t-22.5 -26t-14 -37.5t-7.5 -54.5 t-3.5 -63t-1 -76.5v-222h242v-259h-242v-374h445v-282h-889z" />
<glyph unicode="&#xa4;" horiz-adv-x="1138" d="M84 411l163 162q-111 124 -111 293t111 293l-163 162l30 30l162 -162q122 115 290 115h2.5h3.5q168 0 290 -115l162 162l30 -30l-162 -162q110 -125 110 -293q0 -169 -111 -293l163 -162l-30 -30l-162 162q-122 -115 -290 -115h-2.5h-3.5q-168 0 -290 115l-162 -162z M235 866q0 -143 96.5 -244t237.5 -101t238 101t97 244t-96.5 244t-238.5 101q-141 0 -237.5 -101t-96.5 -244z" />
<glyph unicode="&#xa5;" horiz-adv-x="975" d="M3 1658h344l159 -633l142 633h334l-271 -941h129v-172h-170v-134h170v-167h-170v-244h-352v244h-169v167h169v134h-169v172h128z" />
<glyph unicode="&#xa6;" horiz-adv-x="445" d="M106 -366v834h233v-834h-233zM106 824v834h233v-834h-233z" />
<glyph unicode="&#xa7;" horiz-adv-x="969" d="M88 1403q0 89 48 159q53 76 143 114t200 38q156 0 255.5 -93.5t136.5 -247.5l-218 -54q-22 74 -60 120q-37 45 -101 45h-3q-49 -2 -77.5 -25.5t-28.5 -69.5q0 -15 4 -28.5t9 -24t16 -22.5t17.5 -18.5t22 -17t20 -14t21.5 -13t18 -10.5l160 -98q185 -114 185 -283 q0 -82 -41.5 -138.5t-120.5 -107.5q87 -71 129.5 -137t42.5 -152q0 -153 -103.5 -246t-284.5 -93q-154 0 -248.5 92t-132.5 244l223 59q23 -62 65.5 -111t98.5 -49q52 0 82.5 25.5t32.5 69.5q1 54 -34 95t-122 94l-182 112q-162 97 -162 248q0 9 1 18q6 87 55.5 150 t120.5 87q-71 38 -127 110.5t-60 152.5q-1 10 -1 20zM358 886q0 -21 10.5 -42t29.5 -32l127 -71q79 44 79 96q0 53 -62 90l-96 58q-40 -12 -64 -38.5t-24 -60.5z" />
<glyph unicode="&#xa8;" horiz-adv-x="870" d="M80 1355v303h269v-303h-269zM521 1355v303h269v-303h-269z" />
<glyph unicode="&#xa9;" horiz-adv-x="1807" d="M87 832q0 128 28.5 248.5t92.5 232.5t157 195t232 133t308 50q168 0 306.5 -50t231 -133t156.5 -195t92.5 -232.5t28.5 -248.5t-28.5 -248.5t-92 -232t-156 -195t-231 -133t-307.5 -49.5t-308 50t-232 133t-157 195t-92.5 232.5t-28.5 247.5zM186 831q0 -120 26.5 -230.5 t83.5 -210t140 -173.5t204.5 -117t267.5 -43q145 0 266 43t204 117t140 173.5t83.5 210t26.5 230.5t-26.5 230.5t-83.5 209.5t-140 172t-203.5 115.5t-266.5 42.5t-267.5 -42.5t-204.5 -115.5t-140 -172t-83.5 -209.5t-26.5 -230.5zM461 643v392q0 184 115.5 286t327.5 102 q208 0 320 -87t112 -260v-114h-347v115q0 67 -21 92.5t-63 25.5q-43 0 -63.5 -31t-20.5 -107v-440q0 -76 21 -105t63 -29q43 0 63.5 26.5t20.5 87.5v132h347v-126q0 -172 -113 -261t-319 -89q-212 0 -327.5 102.5t-115.5 287.5z" />
<glyph unicode="&#xaa;" horiz-adv-x="990" d="M117 884q0 48 13.5 90t33.5 73t54 59.5t63.5 46t74 37t73.5 29.5t75 25t65 22v111q0 88 -60 88q-37 0 -51 -33t-21 -118l-288 8q1 181 102 271t284 90q166 0 249 -89t83 -240v-697h-263l-18 137q-26 -68 -81 -111t-132 -43q-118 2 -187 74.5t-69 169.5zM402 938 q0 -46 23 -73t58 -27q52 0 86 52v260q-73 -34 -120 -95t-47 -117z" />
<glyph unicode="&#xab;" horiz-adv-x="1000" d="M74 551v117l400 481v-324l-203 -216l203 -215v-324zM519 551v117l401 481v-324l-204 -216l204 -215v-324z" />
<glyph unicode="&#xac;" horiz-adv-x="1017" d="M95 741v225h826v-545h-164v320h-662z" />
<glyph unicode="&#xad;" horiz-adv-x="761" d="M132 557v215h512v-215h-512z" />
<glyph unicode="&#xae;" horiz-adv-x="1824" d="M98 828q0 128 28.5 248t92 231.5t156.5 194.5t231.5 132.5t306.5 49.5t306 -49.5t230.5 -132.5t156 -194.5t92 -231.5t28.5 -248t-28 -248t-91.5 -231.5t-156 -194.5t-231 -132.5t-306.5 -49.5t-306.5 50t-231.5 133t-156.5 194.5t-92 231.5t-28.5 247zM221 827 q0 -114 25 -220.5t80 -203t134 -167.5t195.5 -113t256.5 -42q139 0 254.5 42t194.5 113t134 167t80 203t25 221q0 115 -25 221.5t-80 202t-134 166.5t-194.5 112.5t-254.5 41.5q-140 0 -256.5 -41.5t-195.5 -112t-134 -166.5t-80 -202.5t-25 -221.5zM567 315v1034h340 q188 0 282 -63.5t94 -219.5q0 -100 -33 -159.5t-115 -98.5l180 -493h-284l-139 440h-55v-440h-270zM837 892h41q83 0 117 39.5t34 115.5q0 143 -128 143h-64v-298z" />
<glyph unicode="&#xaf;" horiz-adv-x="366" d="M-67 1501v157h516v-157h-516z" />
<glyph unicode="&#xb0;" horiz-adv-x="1105" d="M140 1275q0 185 112.5 295t298.5 110q187 0 301 -110.5t114 -294.5t-113 -295.5t-302 -111.5q-186 0 -298.5 111.5t-112.5 295.5zM351 1275q0 -100 53 -162.5t147 -62.5q95 0 148.5 62.5t53.5 162.5t-53 161t-149 61q-94 0 -147 -61t-53 -161z" />
<glyph unicode="&#xb1;" horiz-adv-x="984" d="M132 0v203h720v-203h-720zM132 641v197h255v263h211v-263h254v-197h-254v-264h-211v264h-255z" />
<glyph unicode="&#xb2;" horiz-adv-x="885" d="M142 1404v62q0 170 80 271t247 101q155 0 241 -84t86 -234q0 -37 -7.5 -74.5t-16 -63t-29.5 -65t-31 -56.5t-39 -61.5t-37 -56.5l-208 -324h336v-198h-621v192l282 435q8 12 41 61t46 71.5t27.5 64t14.5 78.5q0 55 -25 83q-20 22 -51 22q-8 0 -16 -1q-77 -11 -77 -223 h-243z" />
<glyph unicode="&#xb3;" horiz-adv-x="885" d="M130 988v53h253v-58q0 -91 19.5 -129t65.5 -38q45 0 63 35t18 111q0 93 -27 138t-97 45h-61v165h56q73 0 101 46.5t28 140.5q0 139 -86 139q-80 0 -80 -139v-85h-253v89q0 160 88 248.5t243 88.5q160 0 247.5 -83.5t87.5 -245.5q0 -100 -42.5 -174t-100.5 -89 q143 -56 143 -271q0 -174 -79.5 -273.5t-249.5 -99.5q-96 0 -162.5 27t-104 79.5t-54 120t-16.5 159.5z" />
<glyph unicode="&#xb4;" horiz-adv-x="633" d="M111 1246l125 412h342l-259 -412h-208z" />
<glyph unicode="&#xb5;" horiz-adv-x="1006" d="M85 1184h334v-879q0 -45 14 -66.5t52 -20.5q39 0 95 35v931h334v-1184h-334v95q-65 -62 -135 -88q-14 -6 -25 -9v-380h-334z" />
<glyph unicode="&#xb6;" horiz-adv-x="1067" d="M72 1329q0 74 21.5 131.5t57.5 94t87.5 60.5t108 33.5t123.5 9.5h458v-1854h-183v1666h-165v-1666h-194v1200q-142 3 -228 88.5t-86 236.5z" />
<glyph unicode="&#xb7;" horiz-adv-x="457" d="M72 616v309h315v-309h-315z" />
<glyph unicode="&#xb8;" horiz-adv-x="567" d="M108 -399q41 -12 96 -16q12 -1 24 -1q40 0 78 11q48 14 48 49q0 39 -32.5 66.5t-71.5 38.5t-85 14v237h124v-135q118 -5 199 -61q82 -57 82 -149q0 -75 -42 -127q-43 -54 -112 -76q-66 -21 -142 -20h-8q-80 1 -158 24v145z" />
<glyph unicode="&#xb9;" horiz-adv-x="878" d="M162 1497v187q3 1 32 11t47 17t49.5 20.5t53 25t43.5 27.5t34 31h195v-1195h-250v926z" />
<glyph unicode="&#xba;" horiz-adv-x="990" d="M141 966v391q0 159 94 242.5t259 83.5q162 0 258.5 -84.5t96.5 -241.5v-391q0 -157 -96.5 -242t-258.5 -85q-165 0 -259 84t-94 243zM412 970q0 -128 81 -128q45 0 64 32t19 96v383q0 63 -19 95t-64 32q-81 0 -81 -127v-383z" />
<glyph unicode="&#xbb;" horiz-adv-x="1016" d="M92 70v324l210 216l-210 215v324l407 -481v-117zM538 70v324l209 216l-209 215v324l406 -481v-117z" />
<glyph unicode="&#xbc;" horiz-adv-x="1407" d="M105 1337v154q134 71 210 167h109v-830h-198v565zM218 0l765 1658h168l-766 -1658h-167zM754 229v145l290 485h153v-478h107v-152h-107v-228h-170v228h-273zM878 381h149v263z" />
<glyph unicode="&#xbd;" horiz-adv-x="1407" d="M52 1337v154q132 69 211 167h109v-830h-198v565zM173 0l765 1658h168l-766 -1658h-167zM820 640q1 106 64.5 170t179.5 64q117 0 184 -60.5t67 -169.5q0 -54 -21.5 -111.5t-45.5 -96.5t-74 -109q-5 -6 -35.5 -47.5t-62 -84.5t-33.5 -46h256v-148h-460v148l191 273 q4 6 18 26t19 27.5t16.5 26t16.5 28t13 26t11.5 29t6.5 27.5t3 29q0 84 -66 84q-40 1 -58 -45q-11 -29 -12 -65q0 -21 4 -44h-177q-5 48 -5 69z" />
<glyph unicode="&#xbe;" horiz-adv-x="1407" d="M98 1118h150q0 -43 17 -67t49 -24q55 0 55 90q0 58 -27 77t-99 19v121q71 0 99.5 20t28.5 76q0 47 -12.5 71.5t-45.5 24.5q-37 0 -51 -23.5t-14 -67.5h-150q0 116 59 172.5t168 56.5q203 0 203 -219q0 -67 -38 -111t-90 -50q132 -21 132 -165q0 -111 -54 -170.5 t-157 -59.5q-105 0 -164 61.5t-59 167.5zM235 0l765 1658h168l-766 -1658h-167zM776 229v145l290 485h153v-478h107v-152h-107v-228h-170v228h-273zM900 381h149v263z" />
<glyph unicode="&#xbf;" horiz-adv-x="1067" d="M104 51q0 179 101.5 352t251.5 278v199h304v-264q-150 -124 -243 -274q-84 -135 -84 -274q0 -15 1 -30q3 -64 35 -92t80 -28q44 0 71 32q24 29 24 74v10q0 40 -21 106l302 68q30 -120 30 -174q1 -18 1 -34q1 -66 -15 -124q-20 -72 -66 -127.5t-127.5 -86.5t-191.5 -31 q-219 0 -336 110t-117 310zM444 999v317h326v-317h-326z" />
<glyph unicode="&#xc0;" horiz-adv-x="1127" d="M43 0l314 1658h414l312 -1658h-338l-57 352h-242l-56 -352h-347zM200 2215h343l124 -412h-208zM478 571h177l-89 642z" />
<glyph unicode="&#xc1;" horiz-adv-x="1127" d="M43 0l314 1658h414l312 -1658h-338l-57 352h-242l-56 -352h-347zM459 1803l126 412h342l-259 -412h-209zM478 571h177l-89 642z" />
<glyph unicode="&#xc2;" horiz-adv-x="1127" d="M43 0l314 1658h414l312 -1658h-338l-57 352h-242l-56 -352h-347zM230 1803l193 391h275l199 -391h-245l-89 242l-89 -242h-244zM478 571h177l-89 642z" />
<glyph unicode="&#xc3;" horiz-adv-x="1127" d="M43 0l314 1658h414l312 -1658h-338l-57 352h-242l-56 -352h-347zM238 1816v13q0 82 12 136q13 58 52 97t106 44q8 1 17 1q44 0 92 -18q56 -21 101.5 -45.5t63.5 -26.5q6 -1 11 -1q47 0 47 77h148q0 -58 -4.5 -103t-18 -89t-42.5 -69.5t-72 -28.5h-10q-39 0 -91 21 q-59 24 -113 50t-82 26q-57 0 -57 -84h-160zM478 571h177l-89 642z" />
<glyph unicode="&#xc4;" horiz-adv-x="1127" d="M43 0l314 1658h414l312 -1658h-338l-57 352h-242l-56 -352h-347zM208 1803v303h269v-303h-269zM478 571h177l-89 642zM649 1803v303h269v-303h-269z" />
<glyph unicode="&#xc5;" horiz-adv-x="1127" d="M43 0l314 1658h414l312 -1658h-338l-57 352h-242l-56 -352h-347zM323 1894q0 107 68 166.5t171 59.5q104 0 173 -60t69 -166q0 -108 -69 -168t-173 -60q-103 0 -171 60t-68 168zM460 1894q0 -47 27 -78t75 -31t75 31t27 78q0 46 -27 77t-75 31t-75 -31t-27 -77zM478 571 h177l-89 642z" />
<glyph unicode="&#xc6;" horiz-adv-x="1450" d="M-32 0l723 1635h715v-249h-349v-402h247v-255h-247v-481h349v-248h-664v347h-266l-142 -347h-366zM552 578h190v510z" />
<glyph unicode="&#xc7;" horiz-adv-x="1151" d="M99 532v591q0 135 25 234.5t81.5 174t154 112t237.5 37.5q134 0 228.5 -34t148 -100t77 -150t23.5 -195v-146h-358v167q0 39 -1 59t-7 51.5t-17.5 47.5t-35.5 28.5t-58 12.5t-58 -12.5t-36.5 -30t-20 -48t-9 -55.5t-1.5 -62v-773q0 -100 26 -152.5t99 -52.5 q33 0 56.5 12.5t35.5 29.5t18.5 48t7.5 54t1 61v174h358v-143q0 -89 -14 -161t-47.5 -135.5t-87 -106.5t-136.5 -67.5t-192 -24.5q-139 0 -237 38.5t-154.5 113.5t-81.5 173t-25 230zM473 -399q41 -12 96 -16q12 -1 24 -1q40 0 78 11q48 14 48 49q0 39 -32.5 66.5 t-71.5 38.5t-85 14v237h124v-135q118 -5 199 -61q82 -57 82 -149q0 -75 -42 -127q-43 -54 -112 -76q-66 -21 -142 -20h-8q-80 1 -158 24v145z" />
<glyph unicode="&#xc8;" d="M122 0v1658h745v-250h-379v-410h289v-255h-289v-495h383v-248h-749zM133 2215h343l124 -412h-208z" />
<glyph unicode="&#xc9;" d="M122 0v1658h745v-250h-379v-410h289v-255h-289v-495h383v-248h-749zM392 1803l126 412h342l-259 -412h-209z" />
<glyph unicode="&#xca;" d="M122 0v1658h745v-250h-379v-410h289v-255h-289v-495h383v-248h-749zM163 1803l193 391h275l199 -391h-245l-89 242l-89 -242h-244z" />
<glyph unicode="&#xcb;" d="M122 0v1658h745v-250h-379v-410h289v-255h-289v-495h383v-248h-749zM142 1803v303h269v-303h-269zM583 1803v303h269v-303h-269z" />
<glyph unicode="&#xcc;" horiz-adv-x="615" d="M-55 2215h343l124 -412h-208zM125 0v1658h366v-1658h-366z" />
<glyph unicode="&#xcd;" horiz-adv-x="615" d="M125 0v1658h366v-1658h-366zM203 1803l126 412h342l-259 -412h-209z" />
<glyph unicode="&#xce;" horiz-adv-x="615" d="M-26 1803l193 391h275l199 -391h-245l-89 242l-89 -242h-244zM125 0v1658h366v-1658h-366z" />
<glyph unicode="&#xcf;" horiz-adv-x="615" d="M-47 1803v303h269v-303h-269zM125 0v1658h366v-1658h-366zM394 1803v303h269v-303h-269z" />
<glyph unicode="&#xd0;" horiz-adv-x="1146" d="M16 758v183h90v717h417q163 0 270.5 -29t171.5 -95t90 -161.5t26 -239.5v-598q0 -145 -26 -242.5t-90 -165t-170 -97.5t-267 -30h-422v758h-90zM472 254h56q42 0 71.5 5.5t49 19.5t31 29.5t17 45t7 56t1.5 71.5v713q0 63 -5 97t-23 62t-53.5 38.5t-96.5 10.5h-55v-461h83 v-183h-83v-504z" />
<glyph unicode="&#xd1;" horiz-adv-x="1146" d="M122 0v1658h258l341 -796v796h304v-1658h-248l-342 858v-858h-313zM248 1816v13q0 82 12 136q13 58 52 97t106 44q8 1 17 1q44 0 92 -18q56 -21 101.5 -45.5t63.5 -26.5q6 -1 11 -1q47 0 47 77h148q0 -58 -4.5 -103t-18 -89t-42.5 -69.5t-72 -28.5h-10q-39 0 -91 21 q-59 24 -113 50t-82 26q-57 0 -57 -84h-160z" />
<glyph unicode="&#xd2;" horiz-adv-x="1198" d="M99 524v612q0 134 25.5 231.5t83 169.5t155 108t235.5 36q269 0 385.5 -137.5t116.5 -407.5v-612q0 -270 -116.5 -408.5t-385.5 -138.5q-138 0 -235.5 36.5t-155 109t-83 170.5t-25.5 231zM237 2215h343l124 -412h-208zM475 433q0 -35 1.5 -58.5t8.5 -52t20 -45.5 t36.5 -29t56.5 -12t57 11.5t37 29t20.5 45.5t9.5 52.5t2 58.5v795q0 33 -2 57.5t-9.5 52t-20.5 44.5t-37 28.5t-57 11.5t-56.5 -11.5t-36.5 -28t-20 -45t-8.5 -51.5t-1.5 -58v-795z" />
<glyph unicode="&#xd3;" horiz-adv-x="1198" d="M99 524v612q0 134 25.5 231.5t83 169.5t155 108t235.5 36q269 0 385.5 -137.5t116.5 -407.5v-612q0 -270 -116.5 -408.5t-385.5 -138.5q-138 0 -235.5 36.5t-155 109t-83 170.5t-25.5 231zM475 433q0 -35 1.5 -58.5t8.5 -52t20 -45.5t36.5 -29t56.5 -12t57 11.5t37 29 t20.5 45.5t9.5 52.5t2 58.5v795q0 33 -2 57.5t-9.5 52t-20.5 44.5t-37 28.5t-57 11.5t-56.5 -11.5t-36.5 -28t-20 -45t-8.5 -51.5t-1.5 -58v-795zM495 1803l126 412h342l-259 -412h-209z" />
<glyph unicode="&#xd4;" horiz-adv-x="1198" d="M99 524v612q0 134 25.5 231.5t83 169.5t155 108t235.5 36q269 0 385.5 -137.5t116.5 -407.5v-612q0 -270 -116.5 -408.5t-385.5 -138.5q-138 0 -235.5 36.5t-155 109t-83 170.5t-25.5 231zM266 1803l193 391h275l199 -391h-245l-89 242l-89 -242h-244zM475 433 q0 -35 1.5 -58.5t8.5 -52t20 -45.5t36.5 -29t56.5 -12t57 11.5t37 29t20.5 45.5t9.5 52.5t2 58.5v795q0 33 -2 57.5t-9.5 52t-20.5 44.5t-37 28.5t-57 11.5t-56.5 -11.5t-36.5 -28t-20 -45t-8.5 -51.5t-1.5 -58v-795z" />
<glyph unicode="&#xd5;" horiz-adv-x="1198" d="M99 524v612q0 134 25.5 231.5t83 169.5t155 108t235.5 36q269 0 385.5 -137.5t116.5 -407.5v-612q0 -270 -116.5 -408.5t-385.5 -138.5q-138 0 -235.5 36.5t-155 109t-83 170.5t-25.5 231zM274 1816v13q0 82 12 136q13 58 52 97t106 44q8 1 17 1q44 0 92 -18 q56 -21 101.5 -45.5t63.5 -26.5q6 -1 11 -1q47 0 47 77h148q0 -58 -4.5 -103t-18 -89t-42.5 -69.5t-72 -28.5h-10q-39 0 -91 21q-59 24 -113 50t-82 26q-57 0 -57 -84h-160zM475 433q0 -35 1.5 -58.5t8.5 -52t20 -45.5t36.5 -29t56.5 -12t57 11.5t37 29t20.5 45.5t9.5 52.5 t2 58.5v795q0 33 -2 57.5t-9.5 52t-20.5 44.5t-37 28.5t-57 11.5t-56.5 -11.5t-36.5 -28t-20 -45t-8.5 -51.5t-1.5 -58v-795z" />
<glyph unicode="&#xd6;" horiz-adv-x="1198" d="M99 524v612q0 134 25.5 231.5t83 169.5t155 108t235.5 36q269 0 385.5 -137.5t116.5 -407.5v-612q0 -270 -116.5 -408.5t-385.5 -138.5q-138 0 -235.5 36.5t-155 109t-83 170.5t-25.5 231zM244 1803v303h269v-303h-269zM475 433q0 -35 1.5 -58.5t8.5 -52t20 -45.5 t36.5 -29t56.5 -12t57 11.5t37 29t20.5 45.5t9.5 52.5t2 58.5v795q0 33 -2 57.5t-9.5 52t-20.5 44.5t-37 28.5t-57 11.5t-56.5 -11.5t-36.5 -28t-20 -45t-8.5 -51.5t-1.5 -58v-795zM685 1803v303h269v-303h-269z" />
<glyph unicode="&#xd7;" horiz-adv-x="993" d="M111 618l234 234l-234 232l152 153l234 -233l233 233l152 -150l-234 -235l234 -234l-150 -152l-235 234l-233 -234z" />
<glyph unicode="&#xd8;" horiz-adv-x="1170" d="M99 524v612q0 134 25.5 231.5t83 169.5t155 108t235.5 36q70 0 129 -9.5t107 -27.5l62 166l81 -32l-64 -174q98 -64 142.5 -181t44.5 -287v-612q0 -270 -116.5 -408.5t-385.5 -138.5q-163 0 -270 52l-78 -211l-81 32l84 227q-154 128 -154 447zM475 425q0 -33 2 -56.5 t9.5 -50.5t20 -43.5t36 -27.5t55.5 -11q33 0 57 11.5t37 29t20.5 45.5t9.5 52.5t2 58.5v663zM475 675l241 650q-7 29 -19.5 50t-37.5 34t-61 13q-33 0 -56.5 -11.5t-36.5 -28t-20 -45t-8.5 -51.5t-1.5 -58v-553z" />
<glyph unicode="&#xd9;" horiz-adv-x="1202" d="M111 522v1136h362v-1190q0 -39 2 -66.5t9.5 -59.5t20.5 -52.5t37.5 -34t58.5 -13.5t58 13.5t37 34t20.5 52.5t9.5 60t2 66v1190h363v-1136q0 -138 -23.5 -235t-78.5 -169t-151 -106.5t-237 -34.5q-113 0 -197.5 23.5t-140 66.5t-90 111.5t-48.5 151t-14 192.5zM238 2215 h343l124 -412h-208z" />
<glyph unicode="&#xda;" horiz-adv-x="1202" d="M111 522v1136h362v-1190q0 -39 2 -66.5t9.5 -59.5t20.5 -52.5t37.5 -34t58.5 -13.5t58 13.5t37 34t20.5 52.5t9.5 60t2 66v1190h363v-1136q0 -138 -23.5 -235t-78.5 -169t-151 -106.5t-237 -34.5q-113 0 -197.5 23.5t-140 66.5t-90 111.5t-48.5 151t-14 192.5zM497 1803 l126 412h342l-259 -412h-209z" />
<glyph unicode="&#xdb;" horiz-adv-x="1202" d="M111 522v1136h362v-1190q0 -39 2 -66.5t9.5 -59.5t20.5 -52.5t37.5 -34t58.5 -13.5t58 13.5t37 34t20.5 52.5t9.5 60t2 66v1190h363v-1136q0 -138 -23.5 -235t-78.5 -169t-151 -106.5t-237 -34.5q-113 0 -197.5 23.5t-140 66.5t-90 111.5t-48.5 151t-14 192.5zM268 1803 l193 391h275l199 -391h-245l-89 242l-89 -242h-244z" />
<glyph unicode="&#xdc;" horiz-adv-x="1202" d="M111 522v1136h362v-1190q0 -39 2 -66.5t9.5 -59.5t20.5 -52.5t37.5 -34t58.5 -13.5t58 13.5t37 34t20.5 52.5t9.5 60t2 66v1190h363v-1136q0 -138 -23.5 -235t-78.5 -169t-151 -106.5t-237 -34.5q-113 0 -197.5 23.5t-140 66.5t-90 111.5t-48.5 151t-14 192.5zM246 1803 v303h269v-303h-269zM687 1803v303h269v-303h-269z" />
<glyph unicode="&#xdd;" horiz-adv-x="1011" d="M16 1658h345l158 -525l143 525h333l-312 -980v-678h-351v678zM401 1803l126 412h342l-259 -412h-209z" />
<glyph unicode="&#xde;" horiz-adv-x="1147" d="M106 0v1658h366v-221h159q250 0 368.5 -109t118.5 -354q0 -117 -20.5 -202t-59 -141.5t-101.5 -90t-141 -47.5t-185 -15l-139 -1v-477h-366zM472 739h113q108 0 152.5 49.5t44.5 169.5q0 113 -42 163.5t-144 50.5h-124v-433z" />
<glyph unicode="&#xdf;" horiz-adv-x="1114" d="M104 0v1226q0 71 13.5 135.5t45.5 124t80 102.5t121 69t164 26q230 0 340.5 -115.5t110.5 -332.5q0 -257 -241 -356q154 -44 242 -156t88 -260q0 -258 -137.5 -375.5t-398.5 -117.5v255q108 0 160 64q44 54 44 171q0 20 -1 43q-4 94 -57 154t-129 60l-3 258 q72 0 110 65.5t38 188.5q0 108 -36 164t-100 56q-120 0 -120 -212v-10v-1227h-334z" />
<glyph unicode="&#xe0;" horiz-adv-x="976" d="M73 268q0 58 14.5 108.5t35 87.5t57.5 72t67 56.5t79.5 46t79.5 36.5t81.5 31.5t72.5 28.5v117q0 50 -15 77t-55 27q-68 0 -72 -94l-8 -87l-312 12q0 3 1 20t1 19q15 194 120.5 286t301.5 92q175 0 266.5 -97t91.5 -259v-551q0 -114 21 -297h-297q-26 144 -28 168 q-24 -81 -82 -135t-146 -54q-126 2 -200.5 89.5t-74.5 199.5zM124 1738h343l124 -412h-208zM377 335q0 -58 26 -92t66 -34q24 0 49.5 16.5t41.5 39.5v324q-80 -40 -131.5 -112.5t-51.5 -141.5z" />
<glyph unicode="&#xe1;" horiz-adv-x="976" d="M73 268q0 58 14.5 108.5t35 87.5t57.5 72t67 56.5t79.5 46t79.5 36.5t81.5 31.5t72.5 28.5v117q0 50 -15 77t-55 27q-68 0 -72 -94l-8 -87l-312 12q0 3 1 20t1 19q15 194 120.5 286t301.5 92q175 0 266.5 -97t91.5 -259v-551q0 -114 21 -297h-297q-26 144 -28 168 q-24 -81 -82 -135t-146 -54q-126 2 -200.5 89.5t-74.5 199.5zM377 335q0 -58 26 -92t66 -34q24 0 49.5 16.5t41.5 39.5v324q-80 -40 -131.5 -112.5t-51.5 -141.5zM383 1326l126 412h342l-259 -412h-209z" />
<glyph unicode="&#xe2;" horiz-adv-x="976" d="M73 268q0 58 14.5 108.5t35 87.5t57.5 72t67 56.5t79.5 46t79.5 36.5t81.5 31.5t72.5 28.5v117q0 50 -15 77t-55 27q-68 0 -72 -94l-8 -87l-312 12q0 3 1 20t1 19q15 194 120.5 286t301.5 92q175 0 266.5 -97t91.5 -259v-551q0 -114 21 -297h-297q-26 144 -28 168 q-24 -81 -82 -135t-146 -54q-126 2 -200.5 89.5t-74.5 199.5zM154 1326l193 391h275l199 -391h-245l-89 242l-89 -242h-244zM377 335q0 -58 26 -92t66 -34q24 0 49.5 16.5t41.5 39.5v324q-80 -40 -131.5 -112.5t-51.5 -141.5z" />
<glyph unicode="&#xe3;" horiz-adv-x="976" d="M73 268q0 58 14.5 108.5t35 87.5t57.5 72t67 56.5t79.5 46t79.5 36.5t81.5 31.5t72.5 28.5v117q0 50 -15 77t-55 27q-68 0 -72 -94l-8 -87l-312 12q0 3 1 20t1 19q15 194 120.5 286t301.5 92q175 0 266.5 -97t91.5 -259v-551q0 -114 21 -297h-297q-26 144 -28 168 q-24 -81 -82 -135t-146 -54q-126 2 -200.5 89.5t-74.5 199.5zM162 1339v13q0 82 12 136q13 58 52 97t106 44q8 1 17 1q44 0 92 -18q56 -21 101.5 -45.5t63.5 -26.5q6 -1 11 -1q47 0 47 77h148q0 -58 -4.5 -103t-18 -89t-42.5 -69.5t-72 -28.5h-10q-39 0 -91 21 q-59 24 -113 50t-82 26q-57 0 -57 -84h-160zM377 335q0 -58 26 -92t66 -34q24 0 49.5 16.5t41.5 39.5v324q-80 -40 -131.5 -112.5t-51.5 -141.5z" />
<glyph unicode="&#xe4;" horiz-adv-x="976" d="M73 268q0 58 14.5 108.5t35 87.5t57.5 72t67 56.5t79.5 46t79.5 36.5t81.5 31.5t72.5 28.5v117q0 50 -15 77t-55 27q-68 0 -72 -94l-8 -87l-312 12q0 3 1 20t1 19q15 194 120.5 286t301.5 92q175 0 266.5 -97t91.5 -259v-551q0 -114 21 -297h-297q-26 144 -28 168 q-24 -81 -82 -135t-146 -54q-126 2 -200.5 89.5t-74.5 199.5zM132 1326v303h269v-303h-269zM377 335q0 -58 26 -92t66 -34q24 0 49.5 16.5t41.5 39.5v324q-80 -40 -131.5 -112.5t-51.5 -141.5zM573 1326v303h269v-303h-269z" />
<glyph unicode="&#xe5;" horiz-adv-x="976" d="M73 268q0 58 14.5 108.5t35 87.5t57.5 72t67 56.5t79.5 46t79.5 36.5t81.5 31.5t72.5 28.5v117q0 50 -15 77t-55 27q-68 0 -72 -94l-8 -87l-312 12q0 3 1 20t1 19q15 194 120.5 286t301.5 92q175 0 266.5 -97t91.5 -259v-551q0 -114 21 -297h-297q-26 144 -28 168 q-24 -81 -82 -135t-146 -54q-126 2 -200.5 89.5t-74.5 199.5zM247 1554q0 107 68 166.5t171 59.5q104 0 173 -60t69 -166q0 -108 -69 -168t-173 -60q-103 0 -171 60t-68 168zM377 335q0 -58 26 -92t66 -34q24 0 49.5 16.5t41.5 39.5v324q-80 -40 -131.5 -112.5t-51.5 -141.5 zM384 1554q0 -47 27 -78t75 -31t75 31t27 78q0 46 -27 77t-75 31t-75 -31t-27 -77z" />
<glyph unicode="&#xe6;" horiz-adv-x="1369" d="M61 277q0 73 18 132.5t47.5 99.5t73 70.5t86.5 48.5t97 31q84 19 156 32v149q0 112 -74 112q-39 0 -58 -33.5t-19 -119.5h-324v9q0 202 92 312q94 113 285 113q93 0 160 -43.5t85 -112.5q27 67 99 111t164 44q85 0 153.5 -27t110.5 -72.5t64 -101t22 -116.5 q0 -56 -19 -101.5t-49.5 -76t-76 -55t-89 -39t-99.5 -27.5q-11 -3 -32 -7t-46 -8.5t-33 -6.5v-196q0 -32 0.5 -48t2 -41.5t6 -38.5t11.5 -28t19 -21t28 -6q14 0 24.5 4t16.5 15t10 19.5t5.5 29t1.5 31.5v37v63h309v-94q0 -164 -88 -253.5t-254 -90.5q-58 0 -114.5 20.5 t-101.5 63.5t-58 100q-37 -87 -123 -137q-81 -47 -173 -47h-11q-130 2 -217.5 82.5t-87.5 218.5zM356 317q0 -41 22 -77t64 -36q99 0 99 145l-2 195q-33 -10 -64 -27q-60 -37 -89.5 -94.5t-29.5 -105.5zM855 746q73 10 99 36q33 17 49.5 44t16.5 75q0 54 -20 83t-55 29 q-40 0 -65 -37.5t-25 -97.5v-132z" />
<glyph unicode="&#xe7;" horiz-adv-x="959" d="M81 379v428q0 188 107 292.5t302 104.5q192 0 295.5 -89.5t103.5 -266.5v-125h-322v134q0 68 -18.5 93t-57.5 25t-57 -31t-18 -107v-491q0 -77 18.5 -106t56.5 -29q39 0 57.5 26.5t18.5 88.5v156h322v-143q0 -176 -104.5 -268t-294.5 -92q-195 0 -302 105.5t-107 294.5z M369 -399q41 -12 96 -16q12 -1 24 -1q40 0 78 11q48 14 48 49q0 39 -32.5 66.5t-71.5 38.5t-85 14v237h124v-135q118 -5 199 -61q82 -57 82 -149q0 -75 -42 -127q-43 -54 -112 -76q-66 -21 -142 -20h-8q-80 1 -158 24v145z" />
<glyph unicode="&#xe8;" horiz-adv-x="962" d="M81 380v424q0 191 107.5 295.5t302.5 104.5q197 0 295.5 -101.5t98.5 -298.5v-233h-473v-208q0 -72 18 -108.5t61 -36.5q84 0 84 115v79h310v-69q0 -177 -103.5 -270.5t-290.5 -93.5q-196 0 -303 105t-107 296zM120 1738h343l124 -412h-208zM412 727h163v118 q0 66 -22 93.5t-63 27.5q-39 0 -58.5 -32t-19.5 -109v-98z" />
<glyph unicode="&#xe9;" horiz-adv-x="962" d="M81 380v424q0 191 107.5 295.5t302.5 104.5q197 0 295.5 -101.5t98.5 -298.5v-233h-473v-208q0 -72 18 -108.5t61 -36.5q84 0 84 115v79h310v-69q0 -177 -103.5 -270.5t-290.5 -93.5q-196 0 -303 105t-107 296zM379 1326l126 412h342l-259 -412h-209zM412 727h163v118 q0 66 -22 93.5t-63 27.5q-39 0 -58.5 -32t-19.5 -109v-98z" />
<glyph unicode="&#xea;" horiz-adv-x="962" d="M81 380v424q0 191 107.5 295.5t302.5 104.5q197 0 295.5 -101.5t98.5 -298.5v-233h-473v-208q0 -72 18 -108.5t61 -36.5q84 0 84 115v79h310v-69q0 -177 -103.5 -270.5t-290.5 -93.5q-196 0 -303 105t-107 296zM150 1326l193 391h275l199 -391h-245l-89 242l-89 -242 h-244zM412 727h163v118q0 66 -22 93.5t-63 27.5q-39 0 -58.5 -32t-19.5 -109v-98z" />
<glyph unicode="&#xeb;" horiz-adv-x="962" d="M81 380v424q0 191 107.5 295.5t302.5 104.5q197 0 295.5 -101.5t98.5 -298.5v-233h-473v-208q0 -72 18 -108.5t61 -36.5q84 0 84 115v79h310v-69q0 -177 -103.5 -270.5t-290.5 -93.5q-196 0 -303 105t-107 296zM128 1326v303h269v-303h-269zM412 727h163v118 q0 66 -22 93.5t-63 27.5q-39 0 -58.5 -32t-19.5 -109v-98zM569 1326v303h269v-303h-269z" />
<glyph unicode="&#xec;" horiz-adv-x="573" d="M-75 1738h343l124 -412h-208zM121 0v1184h334v-1184h-334z" />
<glyph unicode="&#xed;" horiz-adv-x="573" d="M121 0v1184h334v-1184h-334zM183 1326l126 412h342l-259 -412h-209z" />
<glyph unicode="&#xee;" horiz-adv-x="573" d="M-46 1326l193 391h275l199 -391h-245l-89 242l-89 -242h-244zM121 0v1184h334v-1184h-334z" />
<glyph unicode="&#xef;" horiz-adv-x="573" d="M-67 1326v303h269v-303h-269zM121 0v1184h334v-1184h-334zM374 1326v303h269v-303h-269z" />
<glyph unicode="&#xf0;" horiz-adv-x="1064" d="M109 433v339q0 187 103 302.5t257 115.5q86 0 157 -39q-1 78 -15.5 138t-34.5 86l-180 -93l-37 86l164 86q-53 63 -249 63l15 208q343 0 473 -138l182 97l36 -88l-158 -83q54 -87 96.5 -239t42.5 -366v-465q0 -107 -22 -189.5t-60 -135t-93.5 -86.5t-118 -47.5 t-138.5 -13.5q-195 0 -307.5 113t-112.5 349zM437 593q0 -229 3 -264q7 -103 48 -126q17 -9 42 -9q56 0 76.5 40t20.5 119v594q-1 1 -13 7t-18.5 8.5t-19 5.5t-25.5 3q-70 0 -92 -76.5t-22 -301.5z" />
<glyph unicode="&#xf1;" horiz-adv-x="1039" d="M104 0v1184h334v-118q141 138 287 138q105 0 161 -77t56 -198v-929h-334v879q0 45 -14 66.5t-52 20.5q-42 0 -104 -41v-925h-334zM198 1339v13q0 82 12 136q13 58 52 97t106 44q8 1 17 1q44 0 92 -18q56 -21 101.5 -45.5t63.5 -26.5q6 -1 11 -1q47 0 47 77h148 q0 -58 -4.5 -103t-18 -89t-42.5 -69.5t-72 -28.5h-10q-39 0 -91 21q-59 24 -113 50t-82 26q-57 0 -57 -84h-160z" />
<glyph unicode="&#xf2;" horiz-adv-x="989" d="M81 368v447q0 190 109 289.5t303 99.5t304.5 -100t110.5 -289v-447q0 -189 -110.5 -289t-304.5 -100t-303 100t-109 289zM131 1738h343l124 -412h-208zM410 345q0 -69 18.5 -105.5t64.5 -36.5q48 0 66.5 35.5t18.5 106.5v493q0 72 -18.5 107.5t-66.5 35.5 q-46 0 -64.5 -36.5t-18.5 -106.5v-493z" />
<glyph unicode="&#xf3;" horiz-adv-x="989" d="M81 368v447q0 190 109 289.5t303 99.5t304.5 -100t110.5 -289v-447q0 -189 -110.5 -289t-304.5 -100t-303 100t-109 289zM390 1326l126 412h342l-259 -412h-209zM410 345q0 -69 18.5 -105.5t64.5 -36.5q48 0 66.5 35.5t18.5 106.5v493q0 72 -18.5 107.5t-66.5 35.5 q-46 0 -64.5 -36.5t-18.5 -106.5v-493z" />
<glyph unicode="&#xf4;" horiz-adv-x="989" d="M81 368v447q0 190 109 289.5t303 99.5t304.5 -100t110.5 -289v-447q0 -189 -110.5 -289t-304.5 -100t-303 100t-109 289zM161 1326l193 391h275l199 -391h-245l-89 242l-89 -242h-244zM410 345q0 -69 18.5 -105.5t64.5 -36.5q48 0 66.5 35.5t18.5 106.5v493 q0 72 -18.5 107.5t-66.5 35.5q-46 0 -64.5 -36.5t-18.5 -106.5v-493z" />
<glyph unicode="&#xf5;" horiz-adv-x="989" d="M81 368v447q0 190 109 289.5t303 99.5t304.5 -100t110.5 -289v-447q0 -189 -110.5 -289t-304.5 -100t-303 100t-109 289zM169 1339v13q0 82 12 136q13 58 52 97t106 44q8 1 17 1q44 0 92 -18q56 -21 101.5 -45.5t63.5 -26.5q6 -1 11 -1q47 0 47 77h148q0 -58 -4.5 -103 t-18 -89t-42.5 -69.5t-72 -28.5h-10q-39 0 -91 21q-59 24 -113 50t-82 26q-57 0 -57 -84h-160zM410 345q0 -69 18.5 -105.5t64.5 -36.5q48 0 66.5 35.5t18.5 106.5v493q0 72 -18.5 107.5t-66.5 35.5q-46 0 -64.5 -36.5t-18.5 -106.5v-493z" />
<glyph unicode="&#xf6;" horiz-adv-x="989" d="M81 368v447q0 190 109 289.5t303 99.5t304.5 -100t110.5 -289v-447q0 -189 -110.5 -289t-304.5 -100t-303 100t-109 289zM140 1326v303h269v-303h-269zM410 345q0 -69 18.5 -105.5t64.5 -36.5q48 0 66.5 35.5t18.5 106.5v493q0 72 -18.5 107.5t-66.5 35.5 q-46 0 -64.5 -36.5t-18.5 -106.5v-493zM581 1326v303h269v-303h-269z" />
<glyph unicode="&#xf7;" horiz-adv-x="929" d="M70 767v180h789v-180h-789zM371 358v255h207v-255h-207zM371 1086v255h207v-255h-207z" />
<glyph unicode="&#xf8;" horiz-adv-x="977" d="M81 368v447q0 190 109 289.5t303 99.5q99 0 177 -26l81 202l79 -32l-83 -206q161 -99 161 -327v-447q0 -189 -110.5 -289t-304.5 -100q-114 0 -199 35l-80 -199l-76 32l83 207q-140 100 -140 314zM410 527l158 396q-17 58 -75 58q-46 0 -64.5 -36.5t-18.5 -106.5v-311z M412 307q9 -104 81 -104q48 0 66.5 35.5t18.5 106.5v376z" />
<glyph unicode="&#xf9;" horiz-adv-x="1030" d="M94 255v929h334v-889q0 -44 15.5 -66.5t52.5 -21.5q40 1 95 36v941h334v-1184h-334v109q-137 -129 -280 -129q-105 0 -161 77t-56 198zM147 1738h343l124 -412h-208z" />
<glyph unicode="&#xfa;" horiz-adv-x="1030" d="M94 255v929h334v-889q0 -44 15.5 -66.5t52.5 -21.5q40 1 95 36v941h334v-1184h-334v109q-137 -129 -280 -129q-105 0 -161 77t-56 198zM405 1326l126 412h342l-259 -412h-209z" />
<glyph unicode="&#xfb;" horiz-adv-x="1030" d="M94 255v929h334v-889q0 -44 15.5 -66.5t52.5 -21.5q40 1 95 36v941h334v-1184h-334v109q-137 -129 -280 -129q-105 0 -161 77t-56 198zM176 1326l193 391h275l199 -391h-245l-89 242l-89 -242h-244z" />
<glyph unicode="&#xfc;" horiz-adv-x="1030" d="M94 255v929h334v-889q0 -44 15.5 -66.5t52.5 -21.5q40 1 95 36v941h334v-1184h-334v109q-137 -129 -280 -129q-105 0 -161 77t-56 198zM154 1326v303h269v-303h-269zM595 1326v303h269v-303h-269z" />
<glyph unicode="&#xfd;" d="M5 1184h315l147 -683l112 683h315l-279 -1248q-62 -279 -423 -279h-10h-46v231q110 0 152 22q38 20 38 79q0 7 -1 14q-6 51 -44 186q-11 47 -138 497.5t-138 497.5zM345 1326l126 412h342l-259 -412h-209z" />
<glyph unicode="&#xfe;" horiz-adv-x="1012" d="M95 -390v2048h334v-561q119 107 243 107h11q128 -4 190.5 -102t62.5 -248v-505q0 -169 -67.5 -269.5t-192.5 -100.5q-122 0 -247 110v-479h-334zM429 226q48 -29 89 -29h2q42 0 62 36q20 37 19 98v548q0 55 -21 90q-19 32 -58 32h-7q-38 -3 -86 -39v-736z" />
<glyph unicode="&#xff;" d="M5 1184h315l147 -683l112 683h315l-279 -1248q-62 -279 -423 -279h-10h-46v231q110 0 152 22q38 20 38 79q0 7 -1 14q-6 51 -44 186q-11 47 -138 497.5t-138 497.5zM94 1326v303h269v-303h-269zM535 1326v303h269v-303h-269z" />
<glyph unicode="&#x152;" horiz-adv-x="1472" d="M99 569v495q0 588 501 588h818v-249h-346v-419h256v-256h-256v-480h347v-248h-814q-139 0 -238 39t-157 115.5t-84.5 178t-26.5 236.5zM466 502q0 -57 4 -93.5t17 -76.5t43 -59.5t77 -19.5h99v1140h-101q-33 0 -57 -10t-39 -31.5t-24 -43.5t-13 -57.5t-5 -60.5t-1 -65 v-623z" />
<glyph unicode="&#x153;" horiz-adv-x="1448" d="M85 356v514q0 178 99 270t272 92q88 0 171 -40t111 -109q29 70 110.5 109.5t165.5 39.5q98 0 169 -30t112 -87t59.5 -131t18.5 -171v-244h-453v-202q0 -181 70 -183h2q36 0 52 30t15 97v153h314v-152q1 -162 -91 -251q-89 -87 -256 -87h-7q-107 1 -182.5 39t-106.5 106 q-80 -144 -294 -144q-156 0 -253.5 98t-97.5 283zM414 348q0 -164 74 -164q42 0 63 37.5t21 126.5v537q0 140 -80 140q-78 0 -78 -140v-537zM920 746h142v153q0 54 -19.5 90t-52.5 36q-31 0 -50.5 -35t-19.5 -91v-153z" />
<glyph unicode="&#x178;" horiz-adv-x="1011" d="M16 1658h345l158 -525l143 525h333l-312 -980v-678h-351v678zM150 1803v303h269v-303h-269zM591 1803v303h269v-303h-269z" />
<glyph unicode="&#x2c6;" horiz-adv-x="829" d="M90 1258l193 400h275l199 -400h-245l-89 251l-89 -251h-244z" />
<glyph unicode="&#x2dc;" horiz-adv-x="873" d="M119 1381v13q0 82 12 136q13 58 52 97t106 44q8 1 17 1q44 0 92 -18q56 -21 101.5 -45.5t63.5 -26.5q6 -1 11 -1q47 0 47 77h148q0 -58 -4.5 -103t-18 -89t-42.5 -69.5t-72 -28.5h-10q-39 0 -91 21q-59 24 -113 50t-82 26q-57 0 -57 -84h-160z" />
<glyph unicode="&#x2000;" horiz-adv-x="1107" />
<glyph unicode="&#x2001;" horiz-adv-x="2215" />
<glyph unicode="&#x2002;" horiz-adv-x="1107" />
<glyph unicode="&#x2003;" horiz-adv-x="2215" />
<glyph unicode="&#x2004;" horiz-adv-x="738" />
<glyph unicode="&#x2005;" horiz-adv-x="553" />
<glyph unicode="&#x2006;" horiz-adv-x="369" />
<glyph unicode="&#x2007;" horiz-adv-x="369" />
<glyph unicode="&#x2008;" horiz-adv-x="276" />
<glyph unicode="&#x2009;" horiz-adv-x="443" />
<glyph unicode="&#x200a;" horiz-adv-x="123" />
<glyph unicode="&#x2010;" horiz-adv-x="790" d="M130 605v215h531v-215h-531z" />
<glyph unicode="&#x2011;" horiz-adv-x="790" d="M130 605v215h531v-215h-531z" />
<glyph unicode="&#x2012;" horiz-adv-x="790" d="M130 605v215h531v-215h-531z" />
<glyph unicode="&#x2013;" horiz-adv-x="1024" d="M1 629v229h1022v-229h-1022z" />
<glyph unicode="&#x2014;" horiz-adv-x="2047" d="M1 671v227h2045v-227h-2045z" />
<glyph unicode="&#x2018;" horiz-adv-x="641" d="M117 1094q0 177 2 226q7 189 61 273.5t190 84.5l25 -106q-74 0 -99.5 -47t-25.5 -139h143v-292h-296z" />
<glyph unicode="&#x2019;" horiz-adv-x="471" d="M125 1366v292h297q0 -152 -3 -226q-7 -189 -60.5 -273.5t-190.5 -84.5l-24 106q74 0 99.5 47t25.5 139h-144z" />
<glyph unicode="&#x201a;" horiz-adv-x="572" d="M149 67v292h296q0 -177 -2 -226q-7 -189 -61 -273.5t-190 -84.5l-25 106q74 0 99.5 47t25.5 139h-143z" />
<glyph unicode="&#x201c;" horiz-adv-x="970" d="M117 1094q0 177 2 226q7 189 61 273.5t190 84.5l25 -106q-74 0 -99.5 -47t-25.5 -139h143v-292h-296zM558 1094q0 177 2 226q7 189 61 273.5t190 84.5l25 -106q-74 0 -99.5 -47t-25.5 -139h143v-292h-296z" />
<glyph unicode="&#x201d;" horiz-adv-x="970" d="M142 1365v293h296q0 -178 -3 -227q-6 -188 -59.5 -272.5t-190.5 -84.5l-25 106q74 0 99.5 46.5t25.5 138.5h-143zM567 1365v293h297q0 -154 -3 -227q-7 -188 -60.5 -272.5t-190.5 -84.5l-25 106q74 0 99.5 46t25.5 139h-143z" />
<glyph unicode="&#x201e;" horiz-adv-x="974" d="M143 69v292h296q0 -177 -2 -226q-7 -189 -61 -273.5t-190 -84.5l-25 106q74 0 99.5 47t25.5 139h-143zM584 69v292h296q0 -177 -2 -226q-7 -189 -61 -273.5t-190 -84.5l-25 106q74 0 99.5 47t25.5 139h-143z" />
<glyph unicode="&#x2022;" horiz-adv-x="979" d="M123 762q0 92 30.5 166t82 120t116 70.5t135.5 24.5q96 0 178 -42t135.5 -130.5t53.5 -208.5q0 -90 -31 -163t-83 -118.5t-117 -70t-136 -24.5t-135.5 24.5t-116 70t-82 118.5t-30.5 163z" />
<glyph unicode="&#x2026;" horiz-adv-x="1356" d="M60 0v314h317v-314h-317zM516 0v314h317v-314h-317zM979 1v314h317v-314h-317z" />
<glyph unicode="&#x202f;" horiz-adv-x="443" />
<glyph unicode="&#x2039;" horiz-adv-x="583" d="M70 493v175l424 452v-324l-220 -214l220 -217v-324z" />
<glyph unicode="&#x203a;" horiz-adv-x="564" d="M83 75v323l227 217l-227 214v324l424 -481v-116z" />
<glyph unicode="&#x205f;" horiz-adv-x="553" />
<glyph unicode="&#x20ac;" horiz-adv-x="1144" d="M14 645v118h104v121h-104v119h104v120q0 135 25 234.5t81.5 174t154 112t236.5 37.5q108 0 190.5 -23t136.5 -64t88 -101.5t48.5 -131.5t14.5 -159v-101h-359v122q0 39 -1 59t-7 51.5t-17.5 47.5t-35 28.5t-57.5 12.5t-58 -12.5t-36.5 -30t-20 -48t-9 -55.5t-1.5 -62 v-211h209v-119h-209v-121h209v-118h-209v-204q0 -100 26 -152.5t99 -52.5q33 0 56.5 12.5t35.5 29.5t18 48.5t7 53.5t1 61v86h359v-55q0 -112 -23 -198t-76 -155t-148.5 -105.5t-230.5 -36.5q-139 0 -236.5 38.5t-154 113.5t-81.5 173t-25 230v113h-104z" />
<glyph unicode="&#x2122;" horiz-adv-x="1775" d="M121 1466v192h601v-192h-186v-810h-222v810h-193zM802 656v1002h240l168 -610l172 610h242v-1002h-190v565l-168 -565h-102l-174 569v-569h-188z" />
<glyph unicode="&#x25fc;" horiz-adv-x="1185" d="M0 0v1185h1185v-1185h-1185z" />
<glyph unicode="&#xfb01;" horiz-adv-x="1130" d="M30 957v227h113v83q0 84 15 146t50.5 109.5t98 72t153.5 24.5q64 0 143 -12v-230q-28 5 -48 5q-40 0 -59 -22.5t-19 -77.5v-98h549v-1184h-331v957h-218v-957h-334v957h-113zM716 1383v235h311v-235h-311z" />
<glyph unicode="&#xfb02;" horiz-adv-x="1132" d="M22 949v235h114v83q0 45 2.5 78t13.5 76t29.5 73.5t54 62.5t84 51.5t122 32t165.5 12.5q181 0 435 -46v-1607h-335v1424q-35 4 -71 4q-57 0 -92.5 -11.5t-51 -36.5t-19.5 -49t-4 -65v-82h127v-235h-127v-949h-333v949h-114z" />
<glyph unicode="&#xfb03;" horiz-adv-x="1646" d="M22 959v225h114v83q0 58 4 99.5t16 84.5t34.5 71t58 50.5t88.5 33.5t124 11q50 0 137 -10v-248q-57 9 -62 9q-35 0 -51 -21.5t-16 -69.5v-93h209v83q0 58 4 99.5t16 84.5t34.5 71t58 50.5t88.5 33.5t124 11q55 0 142 -10v-248q-60 9 -64 9q-69 0 -69 -91v-93h539v-1184 h-334v959h-205v-959h-334v959h-209v-959h-333v959h-114zM1244 1383v235h307v-235h-307z" />
<glyph unicode="&#xfb04;" horiz-adv-x="1589" d="M35 957v227h113v83q0 58 4 99.5t16 84.5t34.5 71t58 50.5t88.5 33.5t124 11q72 0 159 -10v-248q-57 9 -70 9q-80 0 -80 -91v-93h150v-227h-150v-957h-334v957h-113zM520 957v227h113v83q0 58 4 99.5t16 84.5t34.5 71t58 50.5t88.5 33.5t124 11q72 0 159 -10v-248 q-57 9 -70 9q-80 0 -80 -91v-93h150v-227h-150v-957h-334v957h-113zM1149 1383v235h336v-235h-336zM1151 0v1184h334v-1184h-334z" />
</font>
</defs>
</svg>
